(Rock) [CD] VA - Rock Für Den Frieden (Original Amiga Classics) - 2017, FLAC (tracks+.cue), lossless 

Цитировать
Rock Für Den Frieden (Original Amiga Classics)
Жанр: Rock
Носитель: CD
Страна-производитель диска (релиза): EU
Год издания: 2017
Издатель (лейбл): Sony Music, AMIGA
Номер по каталогу: 88985467722
Страна исполнителя (группы): GDR
Аудиокодек: FLAC (*.flac)
Тип рипа: tracks+.cue
Битрейт аудио: lossless
Продолжительность: 3:45:19
Источник (релизер): собственный рип
Наличие сканов в содержимом раздачи: обложки

1974 - Die Rose Von Chile

Треклист:
1. Chilenisches Metall 2:44 - Klaus Renft Combo
2. Sohn Santiagos 2:14 - Reinhard Lakomy und sein Ensemble
3. Lied Von Der Ewigkeit Der Bewegung 2:31 - KOM-Theater
4. Adelante, Compaсeros 3:14 - Monika Hauff und Klaus-Dieter Henkler, Orchester Friedhelm Schonfeld
5. Lied Uber Victor Jara 5:13 - Klara Armandova und Metronom
6. Lied Zu Den Anden 5:24 - Christiane Ufholz und Lift
7. Unser Lied Ist Euer Schrei 3:29 - Dieter Birr und Die Puhdys
8. Elegia Por Salvador Allende 3:43 - Canzoniere Internazionale und Duo Di Padena
9. Rettet Luis Corvalan! 2:07 - Georg Bach und Karl Heinz Ocasek
10. Chile, Chile, Chile 2:12 - KOM-Theater
11. So Starb Auch Neruda 5:18 - Klaus Renft Combo
12. Die Rose Von Chile 5:06 - Chris Doerk und Uve Schikora-Combo

Лог создания рипа

Exact Audio Copy V1.3 from 2. September 2016
EAC extraction logfile from 21. October 2018, 22:01
Various Artists / Die Rose Von Chile
Used drive : PIONEER BD-RW BDR-202 Adapter: 1 ID: 0
Read mode : SecureUtilize accurate stream : YesDefeat audio cache : YesMake use of C2 pointers : No
Read offset correction : 667Overread into Lead-In and Lead-Out : NoFill up missing offset samples with silence : YesDelete leading and trailing silent blocks : NoNull samples used in CRC calculations : YesUsed interface : Native Win32 interface for Win NT & 2000Gap handling : Appended to previous track
Used output format : User Defined EncoderSelected bitrate : 768 kBit/sQuality : HighAdd ID3 tag : YesCommand line compressor : C:\Program Files (x86)\Exact Audio Copy\FLAC\FLAC.EXEAdditional command line options : -8 -V -T "ARTIST=%artist%" -T "TITLE=%title%" -T "ALBUM=%albumtitle%" -T "DATE=%year%" -T "TRACKNUMBER=%tracknr%" -T "GENRE=%genre%" -T "COMMENT=%comment%" -T "BAND=%albuminterpret%" -T "ALBUMARTIST=%albuminterpret%" -T "COMPOSER=%composer%" %haslyrics%--tag-from-file=LYRICS="%lyricsfile%"%haslyrics% -T "DISCNUMBER=%cdnumber%" -T "TOTALDISCS=%totalcds%" -T "TOTALTRACKS=%numtracks%" %hascover%--picture="%coverfile%"%hascover% %source% -o %dest%
TOC of the extracted CD
Track | Start | Length | Start sector | End sector --------------------------------------------------------- 1 | 0:00.00 | 2:44.59 | 0 | 12358 2 | 2:44.59 | 2:14.52 | 12359 | 22460 3 | 4:59.36 | 2:31.44 | 22461 | 33829 4 | 7:31.05 | 3:14.70 | 33830 | 48449 5 | 10:46.00 | 5:13.44 | 48450 | 71968 6 | 15:59.44 | 5:24.46 | 71969 | 96314 7 | 21:24.15 | 3:29.55 | 96315 | 112044 8 | 24:53.70 | 3:43.62 | 112045 | 128831 9 | 28:37.57 | 2:07.51 | 128832 | 138407 10 | 30:45.33 | 2:12.65 | 138408 | 148372 11 | 32:58.23 | 5:18.70 | 148373 | 172292 12 | 38:17.18 | 5:06.02 | 172293 | 195244
Track 1
Filename E:\[1974] - Die Rose Von Chile\01 - Klaus Renft Combo - Chilenisches Metall.wav
Pre-gap length 0:00:02.00
Peak level 99.0 % Extraction speed 3.7 X Track quality 100.0 % Test CRC 67E3B6B9 Copy CRC 67E3B6B9 Accurately ripped (confidence 4) [3540608A] (AR v2) Copy OK
Track 2
Filename E:\[1974] - Die Rose Von Chile\02 - Reinhard Lakomy - Sohn Santiagos.wav
Pre-gap length 0:00:02.41
Peak level 99.0 % Extraction speed 3.7 X Track quality 100.0 % Test CRC 61CE600B Copy CRC 61CE600B Accurately ripped (confidence 4) [AB463DA4] (AR v2) Copy OK
Track 3
Filename E:\[1974] - Die Rose Von Chile\03 - KOM-Theater - Lied Von Der Ewigkeit Der Bewegung.wav
Pre-gap length 0:00:02.43
Peak level 99.0 % Extraction speed 4.1 X Track quality 100.0 % Test CRC FD58C61E Copy CRC FD58C61E Accurately ripped (confidence 4) [4485CA90] (AR v2) Copy OK
Track 4
Filename E:\[1974] - Die Rose Von Chile\04 - Monika Hauff & Klaus-Dieter Henkler - Adelante, Companeros.wav
Pre-gap length 0:00:03.19
Peak level 99.0 % Extraction speed 4.5 X Track quality 100.0 % Test CRC 41BAA4A1 Copy CRC 41BAA4A1 Accurately ripped (confidence 4) [4550EB57] (AR v2) Copy OK
Track 5
Filename E:\[1974] - Die Rose Von Chile\05 - Klara Armandova; Metronom - Lied Über Victor Jara.wav
Pre-gap length 0:00:02.00
Peak level 99.0 % Extraction speed 5.1 X Track quality 100.0 % Test CRC 0970247A Copy CRC 0970247A Accurately ripped (confidence 4) [A8B6B973] (AR v2) Copy OK
Track 6
Filename E:\[1974] - Die Rose Von Chile\06 - Christiane Ufholz; Lift - Lied Zu Den Anden.wav
Pre-gap length 0:00:01.34
Peak level 99.4 % Extraction speed 5.6 X Track quality 100.0 % Test CRC 885E81B9 Copy CRC 885E81B9 Accurately ripped (confidence 4) [728E39E3] (AR v2) Copy OK
Track 7
Filename E:\[1974] - Die Rose Von Chile\07 - Puhdys - Unser Lied Ist Euer Schrei.wav
Pre-gap length 0:00:03.41
Peak level 99.0 % Extraction speed 5.5 X Track quality 100.0 % Test CRC 77CAFC0D Copy CRC 77CAFC0D Accurately ripped (confidence 4) [9300F8FA] (AR v2) Copy OK
Track 8
Filename E:\[1974] - Die Rose Von Chile\08 - Canzoniere Internazionale; Duo Di Piadena - Elegia Por Salvador Allende.wav
Pre-gap length 0:00:00.53
Peak level 99.0 % Extraction speed 5.8 X Track quality 100.0 % Test CRC A8B44147 Copy CRC A8B44147 Accurately ripped (confidence 4) [D871297F] (AR v2) Copy OK
Track 9
Filename E:\[1974] - Die Rose Von Chile\09 - Georg Bach & Karl Heinz Ocasek - Rettet Luis Corvalan!.wav
Pre-gap length 0:00:00.56
Peak level 99.0 % Extraction speed 5.3 X Track quality 100.0 % Test CRC 94A61ACA Copy CRC 94A61ACA Accurately ripped (confidence 4) [4908A11F] (AR v2) Copy OK
Track 10
Filename E:\[1974] - Die Rose Von Chile\10 - KOM-Theater - Chile, Chile, Chile.wav
Pre-gap length 0:00:02.02
Peak level 99.0 % Extraction speed 5.6 X Track quality 100.0 % Test CRC 83189300 Copy CRC 83189300 Accurately ripped (confidence 4) [78C1B866] (AR v2) Copy OK
Track 11
Filename E:\[1974] - Die Rose Von Chile\11 - Klaus Renft Combo - So Starb Auch Neruda.wav
Pre-gap length 0:00:02.47
Peak level 99.0 % Extraction speed 6.6 X Track quality 100.0 % Test CRC 5E544294 Copy CRC 5E544294 Accurately ripped (confidence 4) [8D81963A] (AR v2) Copy OK
Track 12
Filename E:\[1974] - Die Rose Von Chile\12 - Chris Doerk - Die Rose Von Chile (La Rosa De Chile).wav
Pre-gap length 0:00:00.71
Peak level 99.0 % Extraction speed 6.8 X Track quality 100.0 % Test CRC AA7B0F07 Copy CRC AA7B0F07 Accurately ripped (confidence 4) [5F511009] (AR v2) Copy OK
All tracks accurately ripped
No errors occurred
End of status report
---- CUETools DB Plugin V2.1.6
[CTDB TOCID: IOYPvVXkv6ztVnklygG77WlTeAg-] foundSubmit result: IOYPvVXkv6ztVnklygG77WlTeAg- has been confirmedTrack | CTDB Status 1 | (9/9) Accurately ripped 2 | (9/9) Accurately ripped 3 | (9/9) Accurately ripped 4 | (9/9) Accurately ripped 5 | (9/9) Accurately ripped 6 | (9/9) Accurately ripped 7 | (9/9) Accurately ripped 8 | (9/9) Accurately ripped 9 | (9/9) Accurately ripped 10 | (9/9) Accurately ripped 11 | (9/9) Accurately ripped 12 | (9/9) Accurately ripped
==== Log checksum E02A063776FF0FF2927D615635D879E94FCBAFD3F8279272656ED6CDECECD174 ====

Содержание индексной карты (.CUE)

REM GENRE RockREM DATE 1974REM DISCID B30A2B0CREM COMMENT "ExactAudioCopy v1.3"PERFORMER "Various Artists"TITLE "Die Rose Von Chile"FILE "01 - Klaus Renft Combo - Chilenisches Metall.wav" WAVE  TRACK 01 AUDIO    TITLE "Chilenisches Metall"    PERFORMER "Klaus Renft Combo"    INDEX 01 00:00:00  TRACK 02 AUDIO    TITLE "Sohn Santiagos"    PERFORMER "Reinhard Lakomy"    INDEX 00 02:42:18FILE "02 - Reinhard Lakomy - Sohn Santiagos.wav" WAVE    INDEX 01 00:00:00  TRACK 03 AUDIO    TITLE "Lied Von Der Ewigkeit Der Bewegung"    PERFORMER "KOM-Theater"    INDEX 00 02:12:09FILE "03 - KOM-Theater - Lied Von Der Ewigkeit Der Bewegung.wav" WAVE    INDEX 01 00:00:00  TRACK 04 AUDIO    TITLE "Adelante, Companeros"    PERFORMER "Monika Hauff & Klaus-Dieter Henkler"    INDEX 00 02:28:25FILE "04 - Monika Hauff & Klaus-Dieter Henkler - Adelante, Companeros.wav" WAVE    INDEX 01 00:00:00  TRACK 05 AUDIO    TITLE "Lied Uber Victor Jara"    PERFORMER "Klara Armandova; Metronom"    INDEX 00 03:12:70FILE "05 - Klara Armandova; Metronom - Lied Uber Victor Jara.wav" WAVE    INDEX 01 00:00:00  TRACK 06 AUDIO    TITLE "Lied Zu Den Anden"    PERFORMER "Christiane Ufholz; Lift"    INDEX 00 05:12:10FILE "06 - Christiane Ufholz; Lift - Lied Zu Den Anden.wav" WAVE    INDEX 01 00:00:00  TRACK 07 AUDIO    TITLE "Unser Lied Ist Euer Schrei"    PERFORMER "Puhdys"    INDEX 00 05:21:05FILE "07 - Puhdys - Unser Lied Ist Euer Schrei.wav" WAVE    INDEX 01 00:00:00  TRACK 08 AUDIO    TITLE "Elegia Por Salvador Allende"    PERFORMER "Canzoniere Internazionale; Duo Di Piadena"    INDEX 00 03:29:02FILE "08 - Canzoniere Internazionale; Duo Di Piadena - Elegia Por Salvador Allende.wav" WAVE    INDEX 01 00:00:00  TRACK 09 AUDIO    TITLE "Rettet Luis Corvalan!"    PERFORMER "Georg Bach & Karl Heinz Ocasek"    INDEX 00 03:43:06FILE "09 - Georg Bach & Karl Heinz Ocasek - Rettet Luis Corvalan!.wav" WAVE    INDEX 01 00:00:00  TRACK 10 AUDIO    TITLE "Chile, Chile, Chile"    PERFORMER "KOM-Theater"    INDEX 00 02:05:49FILE "10 - KOM-Theater - Chile, Chile, Chile.wav" WAVE    INDEX 01 00:00:00  TRACK 11 AUDIO    TITLE "So Starb Auch Neruda"    PERFORMER "Klaus Renft Combo"    INDEX 00 02:10:18FILE "11 - Klaus Renft Combo - So Starb Auch Neruda.wav" WAVE    INDEX 01 00:00:00  TRACK 12 AUDIO    TITLE "Die Rose Von Chile (La Rosa De Chile)"    PERFORMER "Chris Doerk"    INDEX 00 05:17:74FILE "12 - Chris Doerk - Die Rose Von Chile (La Rosa De Chile).wav" WAVE    INDEX 01 00:00:00

1982 - Rock Für Den Frieden

Треклист:
1. Wie Weit Ist Es Bis Ans Ende Dieser Welt 4:26 - Ute Freudenberg & Elefant
2. So Lange Her 3:28 - Hansi Biebl Band
3. Und Sie Dreht Sich Doch 4:40 - WIR
4. Welt In Visionen 6:21 - NO 55
5. Was Vom Leben Bleibt 2:55 - Puhdys
6. Der Blaue Planet 5:26 - Karat
7. Der Frieden 4:30 - Lift
8. Kommt Alle Her 2:09 - Prinzip
9. El Salvador 4:47 - Stern MeiSen
10. Keiner Will Sterben 4:17 - Karussell

Лог создания рипа

Exact Audio Copy V1.3 from 2. September 2016
EAC extraction logfile from 21. October 2018, 21:07
Various Artists / Rock Für Den Frieden
Used drive : PIONEER BD-RW BDR-202 Adapter: 1 ID: 0
Read mode : SecureUtilize accurate stream : YesDefeat audio cache : YesMake use of C2 pointers : No
Read offset correction : 667Overread into Lead-In and Lead-Out : NoFill up missing offset samples with silence : YesDelete leading and trailing silent blocks : NoNull samples used in CRC calculations : YesUsed interface : Native Win32 interface for Win NT & 2000Gap handling : Appended to previous track
Used output format : User Defined EncoderSelected bitrate : 768 kBit/sQuality : HighAdd ID3 tag : YesCommand line compressor : C:\Program Files (x86)\Exact Audio Copy\FLAC\FLAC.EXEAdditional command line options : -8 -V -T "ARTIST=%artist%" -T "TITLE=%title%" -T "ALBUM=%albumtitle%" -T "DATE=%year%" -T "TRACKNUMBER=%tracknr%" -T "GENRE=%genre%" -T "COMMENT=%comment%" -T "BAND=%albuminterpret%" -T "ALBUMARTIST=%albuminterpret%" -T "COMPOSER=%composer%" %haslyrics%--tag-from-file=LYRICS="%lyricsfile%"%haslyrics% -T "DISCNUMBER=%cdnumber%" -T "TOTALDISCS=%totalcds%" -T "TOTALTRACKS=%numtracks%" %hascover%--picture="%coverfile%"%hascover% %source% -o %dest%
TOC of the extracted CD
Track | Start | Length | Start sector | End sector --------------------------------------------------------- 1 | 0:00.00 | 4:26.07 | 0 | 19956 2 | 4:26.07 | 3:28.48 | 19957 | 35604 3 | 7:54.55 | 4:40.25 | 35605 | 56629 4 | 12:35.05 | 6:21.08 | 56630 | 85212 5 | 18:56.13 | 2:55.42 | 85213 | 98379 6 | 21:51.55 | 5:26.67 | 98380 | 122896 7 | 27:18.47 | 4:30.13 | 122897 | 143159 8 | 31:48.60 | 2:09.73 | 143160 | 152907 9 | 33:58.58 | 4:47.44 | 152908 | 174476 10 | 38:46.27 | 4:17.67 | 174477 | 193818
Track 1
Filename E:\[1982] - Rock Für Den Frieden\01 - Ute Freudenberg & Elefant - Wie Weit Ist Es Bis Ans Ende Dieser Welt.wav
Pre-gap length 0:00:02.00
Peak level 99.2 % Extraction speed 4.0 X Track quality 100.0 % Test CRC A34420E4 Copy CRC A34420E4 Accurately ripped (confidence 3) [0945B5D5] (AR v2) Copy OK
Track 2
Filename E:\[1982] - Rock Für Den Frieden\02 - Hansi Biebl Band - So Lange Her.wav
Peak level 99.0 % Extraction speed 4.3 X Track quality 100.0 % Test CRC 26769FE8 Copy CRC 26769FE8 Accurately ripped (confidence 3) [A76E0702] (AR v2) Copy OK
Track 3
Filename E:\[1982] - Rock Für Den Frieden\03 - Wir - Und Sie Dreht Sich Doch.wav
Peak level 99.0 % Extraction speed 4.9 X Track quality 100.0 % Test CRC 6A36A175 Copy CRC 6A36A175 Accurately ripped (confidence 3) [A3943560] (AR v2) Copy OK
Track 4
Filename E:\[1982] - Rock Für Den Frieden\04 - NO 55 - Welt Iin Visionen.wav
Peak level 99.1 % Extraction speed 5.0 X Track quality 99.9 % Test CRC 0C464E43 Copy CRC 0C464E43 Accurately ripped (confidence 3) [40C0B405] (AR v2) Copy OK
Track 5
Filename E:\[1982] - Rock Für Den Frieden\05 - Puhdys - Was Vom Leben Bleibt.wav
Peak level 99.0 % Extraction speed 5.2 X Track quality 100.0 % Test CRC 9AA60F71 Copy CRC 9AA60F71 Accurately ripped (confidence 3) [DDEB03E2] (AR v2) Copy OK
Track 6
Filename E:\[1982] - Rock Für Den Frieden\06 - Karat - Der Blaue Planet.wav
Pre-gap length 0:00:00.19
Peak level 99.0 % Extraction speed 6.0 X Track quality 100.0 % Test CRC 25DAF03B Copy CRC 25DAF03B Accurately ripped (confidence 3) [98284EEC] (AR v2) Copy OK
Track 7
Filename E:\[1982] - Rock Für Den Frieden\07 - Lift - Der Frieden.wav
Peak level 99.0 % Extraction speed 6.2 X Track quality 100.0 % Test CRC C7D27B88 Copy CRC C7D27B88 Accurately ripped (confidence 3) [FE6FA584] (AR v2) Copy OK
Track 8
Filename E:\[1982] - Rock Für Den Frieden\08 - Prinzip - Kommt Alle Her.wav
Peak level 99.4 % Extraction speed 5.6 X Track quality 100.0 % Test CRC 277029C5 Copy CRC 277029C5 Accurately ripped (confidence 3) [6CA71A98] (AR v2) Copy OK
Track 9
Filename E:\[1982] - Rock Für Den Frieden\09 - Stern Meissen - El Salvador.wav
Peak level 99.9 % Extraction speed 6.5 X Track quality 100.0 % Test CRC 44C4807C Copy CRC 44C4807C Accurately ripped (confidence 3) [C85960AA] (AR v2) Copy OK
Track 10
Filename E:\[1982] - Rock Für Den Frieden\10 - Karussell - Keiner Will Sterben.wav
Peak level 99.8 % Extraction speed 6.7 X Track quality 100.0 % Test CRC 6B75D85C Copy CRC 6B75D85C Accurately ripped (confidence 3) [C283F884] (AR v2) Copy OK
All tracks accurately ripped
No errors occurred
End of status report
---- CUETools DB Plugin V2.1.6
[CTDB TOCID: n81NmDJULmSqD5ehXZd5MSKkW4w-] foundSubmit result: n81NmDJULmSqD5ehXZd5MSKkW4w- has been confirmedTrack | CTDB Status 1 | (9/9) Accurately ripped 2 | (9/9) Accurately ripped 3 | (9/9) Accurately ripped 4 | (9/9) Accurately ripped 5 | (9/9) Accurately ripped 6 | (9/9) Accurately ripped 7 | (9/9) Accurately ripped 8 | (9/9) Accurately ripped 9 | (9/9) Accurately ripped 10 | (9/9) Accurately ripped
==== Log checksum EB74DA9267A13C36F9F534E8E7282266F383DC8F0060E99A60570841143AF09A ====

Содержание индексной карты (.CUE)

REM GENRE RockREM DATE 1982REM DISCID 760A180AREM COMMENT "ExactAudioCopy v1.3"PERFORMER "Various Artists"TITLE "Rock Fur Den Frieden"FILE "01 - Ute Freudenberg & Elefant - Wie Weit Ist Es Bis Ans Ende Dieser Welt.wav" WAVE  TRACK 01 AUDIO    TITLE "Wie Weit Ist Es Bis Ans Ende Dieser Welt"    PERFORMER "Ute Freudenberg & Elefant"    INDEX 01 00:00:00FILE "02 - Hansi Biebl Band - So Lange Her.wav" WAVE  TRACK 02 AUDIO    TITLE "So Lange Her"    PERFORMER "Hansi Biebl Band"    INDEX 01 00:00:00FILE "03 - Wir - Und Sie Dreht Sich Doch.wav" WAVE  TRACK 03 AUDIO    TITLE "Und Sie Dreht Sich Doch"    PERFORMER "Wir"    INDEX 01 00:00:00FILE "04 - NO 55 - Welt Iin Visionen.wav" WAVE  TRACK 04 AUDIO    TITLE "Welt Iin Visionen"    PERFORMER "NO 55"    INDEX 01 00:00:00FILE "05 - Puhdys - Was Vom Leben Bleibt.wav" WAVE  TRACK 05 AUDIO    TITLE "Was Vom Leben Bleibt"    PERFORMER "Puhdys"    INDEX 01 00:00:00  TRACK 06 AUDIO    TITLE "Der Blaue Planet"    PERFORMER "Karat"    INDEX 00 02:55:23FILE "06 - Karat - Der Blaue Planet.wav" WAVE    INDEX 01 00:00:00FILE "07 - Lift - Der Frieden.wav" WAVE  TRACK 07 AUDIO    TITLE "Der Frieden"    PERFORMER "Lift"    INDEX 01 00:00:00FILE "08 - Prinzip - Kommt Alle Her.wav" WAVE  TRACK 08 AUDIO    TITLE "Kommt Alle Her"    PERFORMER "Prinzip"    INDEX 01 00:00:00FILE "09 - Stern Meissen - El Salvador.wav" WAVE  TRACK 09 AUDIO    TITLE "El Salvador"    PERFORMER "Stern Meissen"    INDEX 01 00:00:00FILE "10 - Karussell - Keiner Will Sterben.wav" WAVE  TRACK 10 AUDIO    TITLE "Keiner Will Sterben"    PERFORMER "Karussell"    INDEX 01 00:00:00

1983 - Rock Für Den Frieden '83. Ein Lied Für Die Menschen. Live

Треклист:
1. No Bomb 4:18 - Berluc
2. Computer-Karriere 3:40 - Puhdys
3. Eigentlich 3:58 - Dialog
4. Blutiger Sommer 4:58 - WIR
5. Sag Mir, Wo Die Blumen Sind 4:12 - City
6. Das War's 5:25 - NO 55
7. Nachkriegskinder 5:15 - Katrin Lindner & Schubert-Band
8. Wie Weit Fliegt Die Taube 7:00 - Karat
9. Ein Lied Fur Die Menschen 5:10 - Silly

Лог создания рипа

Exact Audio Copy V1.3 from 2. September 2016
EAC extraction logfile from 21. October 2018, 18:00
Various Artists / Rock Für Den Frieden '83 - Live (Ein Lied Für Die Menschen)
Used drive : PIONEER BD-RW BDR-202 Adapter: 1 ID: 0
Read mode : SecureUtilize accurate stream : YesDefeat audio cache : YesMake use of C2 pointers : No
Read offset correction : 667Overread into Lead-In and Lead-Out : NoFill up missing offset samples with silence : YesDelete leading and trailing silent blocks : NoNull samples used in CRC calculations : YesUsed interface : Native Win32 interface for Win NT & 2000Gap handling : Appended to previous track
Used output format : User Defined EncoderSelected bitrate : 768 kBit/sQuality : HighAdd ID3 tag : YesCommand line compressor : C:\Program Files (x86)\Exact Audio Copy\FLAC\FLAC.EXEAdditional command line options : -8 -V -T "ARTIST=%artist%" -T "TITLE=%title%" -T "ALBUM=%albumtitle%" -T "DATE=%year%" -T "TRACKNUMBER=%tracknr%" -T "GENRE=%genre%" -T "COMMENT=%comment%" -T "BAND=%albuminterpret%" -T "ALBUMARTIST=%albuminterpret%" -T "COMPOSER=%composer%" %haslyrics%--tag-from-file=LYRICS="%lyricsfile%"%haslyrics% -T "DISCNUMBER=%cdnumber%" -T "TOTALDISCS=%totalcds%" -T "TOTALTRACKS=%numtracks%" %hascover%--picture="%coverfile%"%hascover% %source% -o %dest%
TOC of the extracted CD
Track | Start | Length | Start sector | End sector --------------------------------------------------------- 1 | 0:00.00 | 4:18.50 | 0 | 19399 2 | 4:18.50 | 3:40.25 | 19400 | 35924 3 | 7:59.00 | 3:58.06 | 35925 | 53780 4 | 11:57.06 | 4:58.10 | 53781 | 76140 5 | 16:55.16 | 4:12.29 | 76141 | 95069 6 | 21:07.45 | 5:25.10 | 95070 | 119454 7 | 26:32.55 | 5:15.61 | 119455 | 143140 8 | 31:48.41 | 7:00.22 | 143141 | 174662 9 | 38:48.63 | 5:10.59 | 174663 | 197971
Track 1
Filename E:\[1983] - Rock Für Den Frieden '83 - Live (Ein Lied Für Die Menschen)\01 - Berluc - No Bomb.wav
Pre-gap length 0:00:02.00
Peak level 99.0 % Extraction speed 4.0 X Track quality 100.0 % Test CRC CCD51F58 Copy CRC CCD51F58 Accurately ripped (confidence 4) [9FB740AA] (AR v2) Copy OK
Track 2
Filename E:\[1983] - Rock Für Den Frieden '83 - Live (Ein Lied Für Die Menschen)\02 - Puhdys - Computer-Karriere.wav
Peak level 99.0 % Extraction speed 4.3 X Track quality 100.0 % Test CRC 8D0AE733 Copy CRC 8D0AE733 Accurately ripped (confidence 4) [27BFB83F] (AR v2) Copy OK
Track 3
Filename E:\[1983] - Rock Für Den Frieden '83 - Live (Ein Lied Für Die Menschen)\03 - Dialog - Eigentlich.wav
Peak level 99.0 % Extraction speed 4.7 X Track quality 100.0 % Test CRC 9C1AFBA0 Copy CRC 9C1AFBA0 Accurately ripped (confidence 4) [34D01FE1] (AR v2) Copy OK
Track 4
Filename E:\[1983] - Rock Für Den Frieden '83 - Live (Ein Lied Für Die Menschen)\04 - Wir - Blutiger Sommer.wav
Peak level 99.0 % Extraction speed 4.7 X Track quality 99.9 % Test CRC 71794A93 Copy CRC 71794A93 Accurately ripped (confidence 4) [ADD36E81] (AR v2) Copy OK
Track 5
Filename E:\[1983] - Rock Für Den Frieden '83 - Live (Ein Lied Für Die Menschen)\05 - City - Sag Mir, Wo Die Blumen Sind.wav
Peak level 99.2 % Extraction speed 5.4 X Track quality 100.0 % Test CRC CD4F0AC9 Copy CRC CD4F0AC9 Accurately ripped (confidence 4) [1299FB53] (AR v2) Copy OK
Track 6
Filename E:\[1983] - Rock Für Den Frieden '83 - Live (Ein Lied Für Die Menschen)\06 - NO 55 - Das War's.wav
Pre-gap length 0:00:00.38
Peak level 99.0 % Extraction speed 5.9 X Track quality 100.0 % Test CRC 95DC80EA Copy CRC 95DC80EA Accurately ripped (confidence 4) [AE97A123] (AR v2) Copy OK
Track 7
Filename E:\[1983] - Rock Für Den Frieden '83 - Live (Ein Lied Für Die Menschen)\07 - Katrin Lindner & Schubert-Band - Nachkriegskinder.wav
Peak level 99.0 % Extraction speed 6.2 X Track quality 100.0 % Test CRC C8505188 Copy CRC C8505188 Accurately ripped (confidence 4) [D2F3675F] (AR v2) Copy OK
Track 8
Filename E:\[1983] - Rock Für Den Frieden '83 - Live (Ein Lied Für Die Menschen)\08 - Karat - Wie Weit Fliegt Die Taube.wav
Peak level 99.3 % Extraction speed 6.3 X Track quality 99.9 % Test CRC 08F72E35 Copy CRC 08F72E35 Accurately ripped (confidence 4) [8562E6E9] (AR v2) Copy OK
Track 9
Filename E:\[1983] - Rock Für Den Frieden '83 - Live (Ein Lied Für Die Menschen)\09 - Silly - Ein Lied Für Die Menschen.wav
Peak level 99.0 % Extraction speed 6.3 X Track quality 99.9 % Test CRC E8CF8B96 Copy CRC E8CF8B96 Accurately ripped (confidence 4) [68264C87] (AR v2) Copy OK
All tracks accurately ripped
No errors occurred
End of status report
---- CUETools DB Plugin V2.1.6
[CTDB TOCID: St9vqOcwhuye5WY4hOeWM7loZls-] foundSubmit result: St9vqOcwhuye5WY4hOeWM7loZls- has been confirmedTrack | CTDB Status 1 | (9/9) Accurately ripped 2 | (9/9) Accurately ripped 3 | (9/9) Accurately ripped 4 | (9/9) Accurately ripped 5 | (9/9) Accurately ripped 6 | (9/9) Accurately ripped 7 | (9/9) Accurately ripped 8 | (9/9) Accurately ripped 9 | (9/9) Accurately ripped
==== Log checksum 3B7AB01B028A66CC8B723EF471C4622D94AF727AE1868716A806DAF1DE37A862 ====

Содержание индексной карты (.CUE)

REM GENRE RockREM DATE 1983REM DISCID 690A4F09REM COMMENT "ExactAudioCopy v1.3"PERFORMER "Various Artists"TITLE "Rock Fur Den Frieden '83 - Live (Ein Lied Fur Die Menschen)"FILE "01 - Berluc - No Bomb.wav" WAVE  TRACK 01 AUDIO    TITLE "No Bomb"    PERFORMER "Berluc"    INDEX 01 00:00:00FILE "02 - Puhdys - Computer-Karriere.wav" WAVE  TRACK 02 AUDIO    TITLE "Computer-Karriere"    PERFORMER "Puhdys"    INDEX 01 00:00:00FILE "03 - Dialog - Eigentlich.wav" WAVE  TRACK 03 AUDIO    TITLE "Eigentlich"    PERFORMER "Dialog"    INDEX 01 00:00:00FILE "04 - Wir - Blutiger Sommer.wav" WAVE  TRACK 04 AUDIO    TITLE "Blutiger Sommer"    PERFORMER "Wir"    INDEX 01 00:00:00FILE "05 - City - Sag Mir, Wo Die Blumen Sind.wav" WAVE  TRACK 05 AUDIO    TITLE "Sag Mir, Wo Die Blumen Sind"    PERFORMER "City"    INDEX 01 00:00:00  TRACK 06 AUDIO    TITLE "Das War's"    PERFORMER "NO 55"    INDEX 00 04:11:66FILE "06 - NO 55 - Das War's.wav" WAVE    INDEX 01 00:00:00FILE "07 - Katrin Lindner & Schubert-Band - Nachkriegskinder.wav" WAVE  TRACK 07 AUDIO    TITLE "Nachkriegskinder"    PERFORMER "Katrin Lindner & Schubert-Band"    INDEX 01 00:00:00FILE "08 - Karat - Wie Weit Fliegt Die Taube.wav" WAVE  TRACK 08 AUDIO    TITLE "Wie Weit Fliegt Die Taube"    PERFORMER "Karat"    INDEX 01 00:00:00FILE "09 - Silly - Ein Lied Fur Die Menschen.wav" WAVE  TRACK 09 AUDIO    TITLE "Ein Lied Fur Die Menschen"    PERFORMER "Silly"    INDEX 01 00:00:00

1984 - Rock Für Den Frieden '84 Live

Треклист:
1. Die Erde Lebt 4:41 - Berluc
2. Vier Millarden In Einem Boot 4:44 - Electra
3. Mono Poli (Nie Mehr Krieg) 3:55 - Babylon
4. Masters Of War 3:06 - M. Jones Band
5. Das Buch 5:51 - Puhdys
6. Soldat Vom Don 6:35 - Reform
7. Grüß Dich, Grenada 3:53 - Karussell
8. Kind Aus Orlando 2:58 - FWH
9. Rezitativ / Contra 4:00 - City
10. Jericho 5:04 - NO 55

Лог создания рипа

Exact Audio Copy V1.3 from 2. September 2016
EAC extraction logfile from 21. October 2018, 20:16
Various Artists / Rock Für Den Frieden '84 (Live)
Used drive : PIONEER BD-RW BDR-202 Adapter: 1 ID: 0
Read mode : SecureUtilize accurate stream : YesDefeat audio cache : YesMake use of C2 pointers : No
Read offset correction : 667Overread into Lead-In and Lead-Out : NoFill up missing offset samples with silence : YesDelete leading and trailing silent blocks : NoNull samples used in CRC calculations : YesUsed interface : Native Win32 interface for Win NT & 2000Gap handling : Appended to previous track
Used output format : User Defined EncoderSelected bitrate : 768 kBit/sQuality : HighAdd ID3 tag : YesCommand line compressor : C:\Program Files (x86)\Exact Audio Copy\FLAC\FLAC.EXEAdditional command line options : -8 -V -T "ARTIST=%artist%" -T "TITLE=%title%" -T "ALBUM=%albumtitle%" -T "DATE=%year%" -T "TRACKNUMBER=%tracknr%" -T "GENRE=%genre%" -T "COMMENT=%comment%" -T "BAND=%albuminterpret%" -T "ALBUMARTIST=%albuminterpret%" -T "COMPOSER=%composer%" %haslyrics%--tag-from-file=LYRICS="%lyricsfile%"%haslyrics% -T "DISCNUMBER=%cdnumber%" -T "TOTALDISCS=%totalcds%" -T "TOTALTRACKS=%numtracks%" %hascover%--picture="%coverfile%"%hascover% %source% -o %dest%
TOC of the extracted CD
Track | Start | Length | Start sector | End sector --------------------------------------------------------- 1 | 0:00.00 | 4:41.72 | 0 | 21146 2 | 4:41.72 | 4:44.63 | 21147 | 42509 3 | 9:26.60 | 3:55.09 | 42510 | 60143 4 | 13:21.69 | 3:06.40 | 60144 | 74133 5 | 16:28.34 | 5:51.45 | 74134 | 100503 6 | 22:20.04 | 6:35.54 | 100504 | 130182 7 | 28:55.58 | 3:53.49 | 130183 | 147706 8 | 32:49.32 | 2:58.23 | 147707 | 161079 9 | 35:47.55 | 4:00.13 | 161080 | 179092 10 | 39:47.68 | 5:04.26 | 179093 | 201918
Track 1
Filename E:\[1984] - Rock Für Den Frieden '84 (Live)\01 - Berluc - Die Erde Lebt.wav
Pre-gap length 0:00:02.00
Peak level 99.0 % Extraction speed 4.1 X Track quality 100.0 % Test CRC 5BCA0FBC Copy CRC 5BCA0FBC Accurately ripped (confidence 4) [3EB904B6] (AR v2) Copy OK
Track 2
Filename E:\[1984] - Rock Für Den Frieden '84 (Live)\02 - Electra - Vier Milliarden In Einem Boot.wav
Peak level 99.0 % Extraction speed 4.1 X Track quality 99.9 % Test CRC 692115ED Copy CRC 692115ED Accurately ripped (confidence 4) [E7869CFE] (AR v2) Copy OK
Track 3
Filename E:\[1984] - Rock Für Den Frieden '84 (Live)\03 - Babylon - Mono Poli (Nie Mehr Krieg).wav
Peak level 99.0 % Extraction speed 4.8 X Track quality 100.0 % Test CRC EEBC86BC Copy CRC EEBC86BC Accurately ripped (confidence 4) [EEEE2221] (AR v2) Copy OK
Track 4
Filename E:\[1984] - Rock Für Den Frieden '84 (Live)\04 - M. Jones Band - Masters Of War.wav
Peak level 99.0 % Extraction speed 4.2 X Track quality 99.9 % Test CRC CCBC8972 Copy CRC CCBC8972 Accurately ripped (confidence 4) [A0488B45] (AR v2) Copy OK
Track 5
Filename E:\[1984] - Rock Für Den Frieden '84 (Live)\05 - Puhdys - Das Buch.wav
Peak level 99.0 % Extraction speed 5.2 X Track quality 99.9 % Test CRC 1B6CC9A5 Copy CRC 1B6CC9A5 Accurately ripped (confidence 4) [8D4E6522] (AR v2) Copy OK
Track 6
Filename E:\[1984] - Rock Für Den Frieden '84 (Live)\06 - Reform - Soldat Vom Don.wav
Pre-gap length 0:00:00.41
Peak level 99.0 % Extraction speed 5.6 X Track quality 99.9 % Test CRC CA36BD79 Copy CRC CA36BD79 Accurately ripped (confidence 4) [C7052F2C] (AR v2) Copy OK
Track 7
Filename E:\[1984] - Rock Für Den Frieden '84 (Live)\07 - Karussell - Grüß Dich, Grenada.wav
Peak level 99.0 % Extraction speed 6.1 X Track quality 100.0 % Test CRC 55F52290 Copy CRC 55F52290 Accurately ripped (confidence 4) [1539E282] (AR v2) Copy OK
Track 8
Filename E:\[1984] - Rock Für Den Frieden '84 (Live)\08 - FWH - Kind Aus Orlando.wav
Peak level 99.0 % Extraction speed 5.2 X Track quality 99.9 % Test CRC 6EE82B89 Copy CRC 6EE82B89 Accurately ripped (confidence 4) [3314E852] (AR v2) Copy OK
Track 9
Filename E:\[1984] - Rock Für Den Frieden '84 (Live)\09 - City - Rezitativ,Contra.wav
Peak level 99.0 % Extraction speed 6.5 X Track quality 100.0 % Test CRC B405D8C3 Copy CRC B405D8C3 Accurately ripped (confidence 4) [0964F80E] (AR v2) Copy OK
Track 10
Filename E:\[1984] - Rock Für Den Frieden '84 (Live)\10 - NO 55 - Jericho.wav
Peak level 99.4 % Extraction speed 6.9 X Track quality 100.0 % Test CRC B3429D04 Copy CRC B3429D04 Accurately ripped (confidence 4) [685FC590] (AR v2) Copy OK
All tracks accurately ripped
No errors occurred
End of status report
---- CUETools DB Plugin V2.1.6
[CTDB TOCID: .P7wzAKLKJwiwkTWvRM3_L3r8Lo-] foundSubmit result: .P7wzAKLKJwiwkTWvRM3_L3r8Lo- has been confirmedTrack | CTDB Status 1 | (8/8) Accurately ripped 2 | (8/8) Accurately ripped 3 | (8/8) Accurately ripped 4 | (8/8) Accurately ripped 5 | (8/8) Accurately ripped 6 | (8/8) Accurately ripped 7 | (8/8) Accurately ripped 8 | (8/8) Accurately ripped 9 | (8/8) Accurately ripped 10 | (8/8) Accurately ripped
==== Log checksum D158BA7C37A6D78FAACAFCEEA531EB00ABA904715B1A7839485D069E603C50A6 ====

Содержание индексной карты (.CUE)

REM GENRE RockREM DATE 1984REM DISCID 930A840AREM COMMENT "ExactAudioCopy v1.3"PERFORMER "Various Artists"TITLE "Rock Fur Den Frieden '84 (Live)"FILE "01 - Berluc - Die Erde Lebt.wav" WAVE  TRACK 01 AUDIO    TITLE "Die Erde Lebt"    PERFORMER "Berluc"    INDEX 01 00:00:00FILE "02 - Electra - Vier Milliarden In Einem Boot.wav" WAVE  TRACK 02 AUDIO    TITLE "Vier Milliarden In Einem Boot"    PERFORMER "Electra"    INDEX 01 00:00:00FILE "03 - Babylon - Mono Poli (Nie Mehr Krieg).wav" WAVE  TRACK 03 AUDIO    TITLE "Mono Poli (Nie Mehr Krieg)"    PERFORMER "Babylon"    INDEX 01 00:00:00FILE "04 - M. Jones Band - Masters Of War.wav" WAVE  TRACK 04 AUDIO    TITLE "Masters Of War"    PERFORMER "M. Jones Band"    INDEX 01 00:00:00FILE "05 - Puhdys - Das Buch.wav" WAVE  TRACK 05 AUDIO    TITLE "Das Buch"    PERFORMER "Puhdys"    INDEX 01 00:00:00  TRACK 06 AUDIO    TITLE "Soldat Vom Don"    PERFORMER "Reform"    INDEX 00 05:51:04FILE "06 - Reform - Soldat Vom Don.wav" WAVE    INDEX 01 00:00:00FILE "07 - Karussell - Gru. Dich, Grenada.wav" WAVE  TRACK 07 AUDIO    TITLE "Gru. Dich, Grenada"    PERFORMER "Karussell"    INDEX 01 00:00:00FILE "08 - FWH - Kind Aus Orlando.wav" WAVE  TRACK 08 AUDIO    TITLE "Kind Aus Orlando"    PERFORMER "FWH"    INDEX 01 00:00:00FILE "09 - City - Rezitativ,Contra.wav" WAVE  TRACK 09 AUDIO    TITLE "Rezitativ/Contra"    PERFORMER "City"    INDEX 01 00:00:00FILE "10 - NO 55 - Jericho.wav" WAVE  TRACK 10 AUDIO    TITLE "Jericho"    PERFORMER "NO 55"    INDEX 01 00:00:00

1985 - Dien Und Mein Planet. 5 Jahre Rock Für Den Frieden

Треклист:
1. Der Blaue Planet 5:32 - Karat
2. Keiner Will Sterben 4:03 - Karussell
3. No Bomb 3:52 - Berluc
4. Das Buch 5:46 - Puhdys
5. Dein Und Mein Planet 5:24 - Dialog
6. Sag Mir, Wo Die Blumen Sind 4:05 - Ciry
7. Ein Lied Fur Die Menschen 5:17 - Silly
8. Geboren, Um Zu Leben 4:13 - Wolfgang Ziegler + Wir
9. Soldat Vom Don 6:43 - Reform
10. Vier Milliarden 5:01 - Electra

Лог создания рипа

Exact Audio Copy V1.3 from 2. September 2016
EAC extraction logfile from 21. October 2018, 14:11
Various Artists / Dein Und Mein Planet (5 Jahre Rock Für Den Frieden)
Used drive : PIONEER BD-RW BDR-202 Adapter: 1 ID: 0
Read mode : SecureUtilize accurate stream : YesDefeat audio cache : YesMake use of C2 pointers : No
Read offset correction : 667Overread into Lead-In and Lead-Out : NoFill up missing offset samples with silence : YesDelete leading and trailing silent blocks : NoNull samples used in CRC calculations : YesUsed interface : Native Win32 interface for Win NT & 2000Gap handling : Appended to previous track
Used output format : User Defined EncoderSelected bitrate : 768 kBit/sQuality : HighAdd ID3 tag : YesCommand line compressor : C:\Program Files (x86)\Exact Audio Copy\FLAC\FLAC.EXEAdditional command line options : -8 -V -T "ARTIST=%artist%" -T "TITLE=%title%" -T "ALBUM=%albumtitle%" -T "DATE=%year%" -T "TRACKNUMBER=%tracknr%" -T "GENRE=%genre%" -T "COMMENT=%comment%" -T "BAND=%albuminterpret%" -T "ALBUMARTIST=%albuminterpret%" -T "COMPOSER=%composer%" %haslyrics%--tag-from-file=LYRICS="%lyricsfile%"%haslyrics% -T "DISCNUMBER=%cdnumber%" -T "TOTALDISCS=%totalcds%" -T "TOTALTRACKS=%numtracks%" %hascover%--picture="%coverfile%"%hascover% %source% -o %dest%
TOC of the extracted CD
Track | Start | Length | Start sector | End sector --------------------------------------------------------- 1 | 0:00.00 | 5:32.12 | 0 | 24911 2 | 5:32.12 | 4:03.05 | 24912 | 43141 3 | 9:35.17 | 3:52.36 | 43142 | 60577 4 | 13:27.53 | 5:46.55 | 60578 | 86582 5 | 19:14.33 | 5:24.22 | 86583 | 110904 6 | 24:38.55 | 4:05.52 | 110905 | 129331 7 | 28:44.32 | 5:17.12 | 129332 | 153118 8 | 34:01.44 | 4:13.44 | 153119 | 172137 9 | 38:15.13 | 6:43.62 | 172138 | 202424 10 | 44:59.00 | 5:01.30 | 202425 | 225029
Track 1
Filename E:\[1985] - Dein Und Mein Planet (5 Jahre Rock Für Den Frieden)\01 - Karat - Der Blaue Planet.wav
Pre-gap length 0:00:02.00
Peak level 99.0 % Extraction speed 4.2 X Track quality 100.0 % Test CRC 88429FC0 Copy CRC 88429FC0 Accurately ripped (confidence 4) [49D4B32B] (AR v2) Copy OK
Track 2
Filename E:\[1985] - Dein Und Mein Planet (5 Jahre Rock Für Den Frieden)\02 - Karussell - Keiner Will Sterben.wav
Peak level 99.0 % Extraction speed 4.5 X Track quality 100.0 % Test CRC 82808885 Copy CRC 82808885 Accurately ripped (confidence 4) [3B6DBDC0] (AR v2) Copy OK
Track 3
Filename E:\[1985] - Dein Und Mein Planet (5 Jahre Rock Für Den Frieden)\03 - Berluc - No Bomb.wav
Peak level 99.0 % Extraction speed 4.8 X Track quality 100.0 % Test CRC 90447B5A Copy CRC 90447B5A Accurately ripped (confidence 4) [523EEB69] (AR v2) Copy OK
Track 4
Filename E:\[1985] - Dein Und Mein Planet (5 Jahre Rock Für Den Frieden)\04 - Puhdys - Das Buch.wav
Peak level 99.0 % Extraction speed 5.4 X Track quality 100.0 % Test CRC 10B9C186 Copy CRC 10B9C186 Accurately ripped (confidence 4) [B37BF9CB] (AR v2) Copy OK
Track 5
Filename E:\[1985] - Dein Und Mein Planet (5 Jahre Rock Für Den Frieden)\05 - Dialog - Dein Und Mein Planet.wav
Peak level 99.2 % Extraction speed 5.8 X Track quality 100.0 % Test CRC F153E0EF Copy CRC F153E0EF Accurately ripped (confidence 4) [76BC2FA0] (AR v2) Copy OK
Track 6
Filename E:\[1985] - Dein Und Mein Planet (5 Jahre Rock Für Den Frieden)\06 - City - Sag Mir, Wo Die Blumen Sind.wav
Pre-gap length 0:00:00.16
Peak level 99.4 % Extraction speed 5.3 X Track quality 99.9 % Test CRC DA429FD5 Copy CRC DA429FD5 Accurately ripped (confidence 4) [DD07518F] (AR v2) Copy OK
Track 7
Filename E:\[1985] - Dein Und Mein Planet (5 Jahre Rock Für Den Frieden)\07 - Silly - Ein Lied Für Die Menschen.wav
Peak level 99.0 % Extraction speed 6.4 X Track quality 100.0 % Test CRC F38589C1 Copy CRC F38589C1 Accurately ripped (confidence 4) [665F0E52] (AR v2) Copy OK
Track 8
Filename E:\[1985] - Dein Und Mein Planet (5 Jahre Rock Für Den Frieden)\08 - Wolfgang Ziegler + Wir - Geboren Um Zu Leben.wav
Peak level 99.0 % Extraction speed 6.4 X Track quality 100.0 % Test CRC F43E26B3 Copy CRC F43E26B3 Accurately ripped (confidence 4) [A99237CD] (AR v2) Copy OK
Track 9
Filename E:\[1985] - Dein Und Mein Planet (5 Jahre Rock Für Den Frieden)\09 - Reform - Soldat Vom Don.wav
Peak level 99.5 % Extraction speed 7.1 X Track quality 100.0 % Test CRC 52141B12 Copy CRC 52141B12 Accurately ripped (confidence 4) [102AA7B7] (AR v2) Copy OK
Track 10
Filename E:\[1985] - Dein Und Mein Planet (5 Jahre Rock Für Den Frieden)\10 - Electra - Vier Milliarden.wav
Peak level 99.3 % Extraction speed 7.1 X Track quality 100.0 % Test CRC AAD751C1 Copy CRC AAD751C1 Accurately ripped (confidence 4) [C58EC972] (AR v2) Copy OK
All tracks accurately ripped
No errors occurred
End of status report
---- CUETools DB Plugin V2.1.6
[CTDB TOCID: vOcBYx4fQBs1jWmhM8HY1V7AfOw-] foundSubmit result: vOcBYx4fQBs1jWmhM8HY1V7AfOw- has been confirmedTrack | CTDB Status 1 | (9/9) Accurately ripped 2 | (9/9) Accurately ripped 3 | (9/9) Accurately ripped 4 | (9/9) Accurately ripped 5 | (9/9) Accurately ripped 6 | (9/9) Accurately ripped 7 | (9/9) Accurately ripped 8 | (9/9) Accurately ripped 9 | (9/9) Accurately ripped 10 | (9/9) Accurately ripped
==== Log checksum 2688DAA097474E3B5CA8A97D9F8A3BEAFA16FBCD44C2CE72808D702EECB4D394 ====

Содержание индексной карты (.CUE)

REM GENRE RockREM DATE 1985REM DISCID 810BB80AREM COMMENT "ExactAudioCopy v1.3"PERFORMER "Various Artists"TITLE "Dein Und Mein Planet (5 Jahre Rock Fur Den Frieden)"FILE "01 - Karat - Der Blaue Planet.wav" WAVE  TRACK 01 AUDIO    TITLE "Der Blaue Planet"    PERFORMER "Karat"    INDEX 01 00:00:00FILE "02 - Karussell - Keiner Will Sterben.wav" WAVE  TRACK 02 AUDIO    TITLE "Keiner Will Sterben"    PERFORMER "Karussell"    INDEX 01 00:00:00FILE "03 - Berluc - No Bomb.wav" WAVE  TRACK 03 AUDIO    TITLE "No Bomb"    PERFORMER "Berluc"    INDEX 01 00:00:00FILE "04 - Puhdys - Das Buch.wav" WAVE  TRACK 04 AUDIO    TITLE "Das Buch"    PERFORMER "Puhdys"    INDEX 01 00:00:00FILE "05 - Dialog - Dein Und Mein Planet.wav" WAVE  TRACK 05 AUDIO    TITLE "Dein Und Mein Planet"    PERFORMER "Dialog"    INDEX 01 00:00:00  TRACK 06 AUDIO    TITLE "Sag Mir, Wo Die Blumen Sind"    PERFORMER "City"    INDEX 00 05:24:06FILE "06 - City - Sag Mir, Wo Die Blumen Sind.wav" WAVE    INDEX 01 00:00:00FILE "07 - Silly - Ein Lied Fur Die Menschen.wav" WAVE  TRACK 07 AUDIO    TITLE "Ein Lied Fur Die Menschen"    PERFORMER "Silly"    INDEX 01 00:00:00FILE "08 - Wolfgang Ziegler + Wir - Geboren Um Zu Leben.wav" WAVE  TRACK 08 AUDIO    TITLE "Geboren Um Zu Leben"    PERFORMER "Wolfgang Ziegler + Wir"    INDEX 01 00:00:00FILE "09 - Reform - Soldat Vom Don.wav" WAVE  TRACK 09 AUDIO    TITLE "Soldat Vom Don"    PERFORMER "Reform"    INDEX 01 00:00:00FILE "10 - Electra - Vier Milliarden.wav" WAVE  TRACK 10 AUDIO    TITLE "Vier Milliarden"    PERFORMER "Electra"    INDEX 01 00:00:00
Торрент перезалит. Убрал в паре имен файлов немецкие буквы. Извините за неудобство.
Вы не можете начинать темы
Вы не можете отвечать на сообщения
Вы не можете редактировать свои сообщения
Вы не можете удалять свои сообщения
Вы не можете голосовать в опросах
Вы не можете прикреплять файлы к сообщениям
Вы можете скачивать файлы
!ВНИМАНИЕ!

Сайт не предоставляет электронные версии произведений, а занимается лишь коллекционированием и каталогизацией ссылок, присылаемых и публикуемых на форуме нашими читателями. Если вы являетесь правообладателем какого-либо представленного материала и не желаете, чтобы ссылка на него находилась в нашем каталоге, свяжитесь с нами, и мы незамедлительно удалим ее. Файлы для обмена на трекере предоставлены пользователями сайта, и администрация не несет ответственности за их содержание. Просьба не заливать файлы, защищенные авторскими правами, а также файлы нелегального содержания!

Искали программы, игры, дополнения, музыка mp3, аниме, аудио книги, журналы? Добро пожаловать на свободный торрент трекер Torrents, у нас можно скачать бесплатно, без смс и регистрации и прочих ограничений лучшие, отборные сборки программ, игр. Скачать торрентом не составит труда даже не опытному пользователю. Раздачи ежедневно обновляются, только лучшие и качественные раздачи, подробные описания и скриншоты. Огромная коллекция программ для работы со звуком, графикой, дизайном, а так же множество плагинов и инструментов к ним с подробной инструкцией и рекомендациями. Прошивки для навигаторов, карты. Разнообразные игры, для Windows, Linux. В коллекцие есть и старые игры любых жанров, Rpg, Action, Shooter, strategy Множество дополнений, модификаций, сценариев для популярных игр в жанре экш, рпг, гонки, стратегии, логические игры. Множество аддонов и сценариев для Microsoft Flight Simulator Большая коллекция книг, учебников. Если нет возможности купить печатное издание - смело скачивайте цифровую версию книги или, быть может, журнала. Не любите читать - можно загрузить бесплатно аудикнигу. Для веб дизайнеров и программистов так же найдется множество специализированного софта, таких как: редакторы с подсветкой, среды программирования, компоненты, системы управления базами данных, разнообразные скрипты и шаблоны. Не так давно у нас появился материал для автолюбителей и владельцев мото - оригинальные и неоригинальные каталоги запчастей, книги и журналы по ремонту и обслуживанию, видеоуроки, статьи по чип тюнингу, прошивкам. Процедура получения контента элементарная, достаточно просто скачать торрент файл и добавить его в загрузку в вашем торрент клиенте. Если у вас нет специального торрент клиента, вы можете его скачать у нас.

500GB Samsung 970 EVO M.2 (2280) SSD PCIe/NVMe MZ-V7E500BW | Zadnjih 7 dana | Manicure & Pedicure